nginx CF-RAY: 343f3f9faa8b5ea0-TPA Ancient Aliens S11E05 The Visionaries 720p HDTV x264-DHD[rartv] torrent on rollovergoldira.net
imdb
rating

7.4
Ancient Aliens

Ancient Aliens (2010)

Documentary, Mystery

Full description

Ancient Aliens S11E05 The Visionaries 720p HDTV x264-DHD[rartv] Verified

Size 1.044 GB   9 seeders     Added 2016-07-17 01:08:04

http://rarbg.to
Ancient.Aliens.S11E05.The.Visionaries.720p.HDTV.x264-DHD
Screens :
Mediainfo :
Video
ID : 1
Format : AVC
Format/Info : Advanced Video Codec
Format profile : [email protected]
Format settings, CABAC : Yes
Format settings, ReFrames : 5 frames
Codec ID : V_MPEG4/ISO/AVC
Duration : 41mn 59s
Bit rate : 2 887 Kbps
Width : 1 280 pixels
Height : 720 pixels
Display aspect ratio : 16:9
Frame rate mode : Constant
Frame rate : 23.976 (24000/1001) fps
Color space : YUV
Chroma subsampling : 4:2:0
Bit depth : 8 bits
Scan type : Progressive
Bits/(Pixel*Frame) : 0.131
Stream size : 867 MiB (88%)
Writing library : x264 core 148 r2694 3b70645
Encoding settings : cabac=1 / ref=5 / deblock=1:0:0 /
analyse=0x3:0x113 / me=umh / subme=8 / psy=1 / psy_rd=1.00:0.00 /
mixed_ref=1 / me_range=16 / chroma_me=1 / trellis=1 / 8x8dct=1 /
cqm=0 / deadzone=21,11 / fast_pskip=1 / chroma_qp_offset=-2 /
threads=12 / lookahead_threads=2 / sliced_threads=0 / nr=0 /
decimate=1 / interlaced=0 / bluray_compat=0 / constrained_intra=0 /
bframes=3 / b_pyramid=2 / b_adapt=2 / b_bias=0 / direct=3 /
weightb=1 / open_gop=0 / weightp=2 / keyint=250 / keyint_min=23 /
scenecut=40 / intra_refresh=0 / rc_lookahead=50 / rc=crf / mbtree=1
/ crf=20.0 / qcomp=0.60 / qpmin=0 / qpmax=69 / qpstep=4 /
ip_ratio=1.40 / aq=1:1.00
Default : Yes
Forced : No
Color range : Limited
Matrix coefficients : BT.709
Audio
ID : 2
Format : AC-3
Format/Info : Audio Coding 3
Mode extension : CM (complete main)
Format settings, Endianness : Big
Codec ID : A_AC3
Duration : 41mn 59s
Bit rate mode : Constant
Bit rate : 384 Kbps
Channel(s) : 6 channels
Channel positions : Front: L C R, Side: L R, LFE
Sampling rate : 48.0 KHz
Frame rate : 31.250 fps (1536 spf)
Compression mode : Lossy
Stream size : 115 MiB (12%)
Default : Yes
Forced : No
Text
ID : 3
Format : UTF-8
Codec ID : S_TEXT/UTF8
Codec ID/Info : UTF-8 Plain Text
Duration : 41mn 56s
Bit rate : 93 bps
Count of elements : 717
Stream size : 28.6 KiB (0%)
Language : English
Default : No
Forced : No
Ancient.Aliens.S11E05.The.Visionaries.720p.HDTV.x264-DHD[rarbg]/Ancient.Aliens.S11E05.The.Visionaries.720p.HDTV.x264-DHD.mkv 1.031 GB
Ancient.Aliens.S11E05.The.Visionaries.720p.HDTV.x264-DHD[rarbg]/RARBG.com.txt 34 B
Ancient.Aliens.S11E05.The.Visionaries.720p.HDTV.x264-DHD[rarbg]/Sample/ancient.aliens.s11e05.the.visionaries.720p.hdtv.x264-dhd-sample.mkv 12.679 MB
Gathering some info...

Register and log in Isohunt and see no captcha anymore!

4000 symbols left
Hash 0f728a0d48bb11a108c151ded70a3203e6922586

Related torrents for "Ancient Aliens S11E05 The Visionaries 720p HDTV x264-DHD[rartv]"

Torrent search:

x264 hdtv episode 05 hd season 11