nginx CF-RAY: 3477b57588ac4e54-DME Blunt Talk S01E07 Meth Or No Meth You Still Gotta Floss 480p WEB-DL DD5 1 H 264-NTb[rartv] torrent on rollovergoldira.net
imdb
rating

7.5
Blunt Talk

Blunt Talk (2015)

Comedy

Full description

Blunt Talk S01E07 Meth Or No Meth You Still Gotta Floss 480p WEB-DL DD5 1 H 264-NTb[rartv]

Size 396.611 MB   0 seeders     Added 2015-10-04 18:30:02

http://rarbg.to
Blunt.Talk.S01E07.Meth.Or.No.Meth.You.Still.Gotta.Floss.480p.WEB-DL.DD5.1.H.264-NTb
Screens :
Mediainfo :
Video
ID : 1
Format : AVC
Format/Info : Advanced Video Codec
Format profile : [email protected]
Format settings, CABAC : No
Format settings, ReFrames : 1 frame
Codec ID : V_MPEG4/ISO/AVC
Duration : 28mn 36s
Bit rate : 1 427 KbpsWidth : 640 pixels
Height : 478 pixels
Display aspect ratio : 16:9
Frame rate mode : Constant
Frame rate : 23.976 fps
Color space : YUV
Chroma subsampling : 4:2:0
Bit depth : 8 bits
Scan type : Progressive
Bits/(Pixel*Frame) : 0.195
Stream size : 292 MiB (77%)
Language : English
Default : Yes
Forced : No
Color range : Limited
Color primaries : BT.601 NTSC
Transfer characteristics : BT.709
Matrix coefficients : BT.601
Audio
ID : 2
Format : AC-3
Format/Info : Audio Coding 3
Mode extension : CM (complete main)
Format settings, Endianness : Big
Codec ID : A_AC3
Duration : 28mn 36s
Bit rate mode : Constant
Bit rate : 384 Kbps
Channel(s) : 6 channels
Channel positions : Front: L C R, Side: L R, LFE
Sampling rate : 48.0 KHz
Compression mode : Lossy
Stream size : 78.6 MiB (21%)
Language : English
Default : Yes
Forced : No
Text
ID : 3
Format : UTF-8
Codec ID : S_TEXT/UTF8
Codec ID/Info : UTF-8 Plain Text
Language : English
Default : No
Forced : No
Blunt.Talk.S01E07.Meth.Or.No.Meth.You.Still.Gotta.Floss.720p.WEB-DL.DD5.1.H.264-NTb[rarbg]/Blunt.Talk.S01E07.Meth.Or.No.Meth.You.Still.Gotta.Floss.720p.WEB-DL.DD5.1.H.264-NTb.mkv 396.572 MB
Blunt.Talk.S01E07.Meth.Or.No.Meth.You.Still.Gotta.Floss.720p.WEB-DL.DD5.1.H.264-NTb[rarbg]/Blunt.Talk.S01E07.Meth.Or.No.Meth.You.Still.Gotta.Floss.720p.WEB-DL.DD5.1.H.264-NTb.srt 39.562 KB
Blunt.Talk.S01E07.Meth.Or.No.Meth.You.Still.Gotta.Floss.720p.WEB-DL.DD5.1.H.264-NTb[rarbg]/RARBG.com.txt 34 B
Gathering some info...

Register and log in Isohunt and see no captcha anymore!

4000 symbols left
Hash 330ef521dd3a306720701db6eb181dfa43aa097b

Related torrents for "Blunt Talk S01E07 Meth Or No Meth You Still Gotta Floss 480p WEB-DL DD5 1 H 264-NTb[rartv]"

Torrent search:

season 01 episode 07 web-dl